* Free Porn * | Free Porn Movies | Porno | Free Porn Tube
 

tit sex fucking youtube videos indian youtube fucking by

2012-May-10 - Amazing Five commission seeks to block child porn websites

Amazing Five

Screens


Media Info: LOL

Complete name : YLP_Amazing Five_17_12_2010.mp4

Format : MPEG-4

Format profile : Base Media

Codec ID : isom

File size : 489 MiB

Duration : 18mn 40s

Overall bit rate : 3 662 Kbps

Writing application : Lavf52.64.2

Video

ID : 1

Format : AVC

Format/Info : Advanced Video Codec

Format profile : High@L3.0

Format settings, CABAC : Yes

Format settings, ReFrames : 2 frames

Codec ID : avc1

Codec ID/Info : Advanced Video Coding

Duration : 18mn 40s

Bit rate mode : Variable

Bit rate : 3 589 Kbps

Nominal bit rate : 200 Kbps

Width : 640 pixels

Height : 360 pixels

Display aspect ratio : 16:9

Frame rate mode : Constant

Frame rate : 29.970 fps

Color space : YUV

Chroma subsampling : 4:2:0

Bit depth : 8 bits

Scan type : Progressive

Bits/(Pixel*Frame) : 0.520

Stream size : 480 MiB (98%)

Writing library : x264 core 78 r1326 3daa02e

Encoding settings : cabac=1 / ref=2 / deblock=1:0:0 / analyse=0x3:0x113 / me=hex / subme=6 / psy=1 / psy_rd=1.0:0.0 / mixed_ref=0 / me_range=16 / chroma_me=1 / trellis=0 / 8x8dct=1 / cqm=0 / deadzone=21,11 / chroma_qp_offset=-2 / threads=12 / nr=0 / decimate=1 / mbaff=0 / constrained_intra=0 / bframes=3 / b_pyramid=0 / b_adapt=1 / b_bias=0 / direct=3 / wpredb=32 / keyint=250 / keyint_min=25 / scenecut=40 / rc_lookahead=40 / rc=abr / mbtree=1 / bitrate=200 / ratetol=20.0 / qcomp=0.60 / qpmin=10 / qpmax=20 /

qpstep=4 / ip_ratio=1.41 / aq=1:1.00

Audio

ID : 2

Format : AAC

Format/Info : Advanced Audio Codec

Format profile : LC

Codec ID : 40

Duration : 18mn 40s

Bit rate mode : Variable

Bit rate : 66.15 Kbps

Channel(s) : 2 channels

Channel positions : Front: L R

Sampling rate : 44.1 KHz

Compression mode : Lossy

Stream size : 8.87 MiB (2%)

Links

or (for 30 days or so)

Unpack with winrar. Pass equals rollinthebytes

--------------------------------------------------------------------

Amazing Threesome Experience

Screens


Media Info: LOL

Complete name : C:\Documents and Settings\Jeremy\My Documents\Vuze Downloads\YoungLegalPorn.com\09_YLP_Amazing Threesome Experience_18_12_2010\YLP_Amazing Threesome Experience_18_12_2010.mp4

Format : MPEG-4

Format profile : Base Media

Codec ID : isom

File size : 492 MiB

Duration : 19mn 32s

Overall bit rate : 3 520 Kbps

Writing application : Lavf52.64.2

Video

ID : 1

Format : AVC

Format/Info : Advanced Video Codec

Format profile : High@L3.0

Format settings, CABAC : Yes

Format settings, ReFrames : 2 frames

Codec ID : avc1

Codec ID/Info : Advanced Video Coding

Duration : 19mn 32s

Bit rate mode : Variable

Bit rate : 3 449 Kbps

Nominal bit rate : 200 Kbps

Width : 640 pixels

Height : 360 pixels

Display aspect ratio : 16:9

Frame rate mode : Constant

Frame rate : 29.970 fps

Color space : YUV

Chroma subsampling : 4:2:0

Bit depth : 8 bits

Scan type : Progressive

Bits/(Pixel*Frame) : 0.499

Stream size : 482 MiB (98%)

Writing library : x264 core 78 r1326 3daa02e

Encoding settings : cabac=1 / ref=2 / deblock=1:0:0 / analyse=0x3:0x113 / me=hex / subme=6 / psy=1 / psy_rd=1.0:0.0 / mixed_ref=0 / me_range=16 / chroma_me=1 / trellis=0 / 8x8dct=1 / cqm=0 / deadzone=21,11 / chroma_qp_offset=-2 / threads=12 / nr=0 / decimate=1 / mbaff=0 / constrained_intra=0 / bframes=3 / b_pyramid=0 / b_adapt=1 / b_bias=0 / direct=3 / wpredb=32 / keyint=250 / keyint_min=25 / scenecut=40 / rc_lookahead=40 / rc=abr / mbtree=1 / bitrate=200 / ratetol=20.0 / qcomp=0.60 / qpmin=10 / qpmax=20 /

qpstep=4 / ip_ratio=1.41 / aq=1:1.00

Audio

ID : 2

Format : AAC

Format/Info : Advanced Audio Codec

Format profile : LC

Codec ID : 40

Duration : 19mn 32s

Bit rate mode : Variable

Bit rate : 66.15 Kbps

Channel(s) : 2 channels

Channel positions : Front: L R

Sampling rate : 44.1 KHz

Compression mode : Lossy

Stream size : 9.13 MiB (2%)

Links

or (for 30 days or so)

Unpack with winrar. Pass equals rollinthebytes



Crystal Ray and Mr. Pete in 'School Bus Girls 3' (2003), ID courtesy of James_Lewis sola aoi porn tube
Charmane Star * A tight Asian pussy nude jennifer aniston sex scene
Carol G vintage pre teen boy porn
tit sex fucking youtube videos indian youtube fucking by
commission seeks to block child porn websites
nude wife tits mature porn kerry marie fuck free scandinavian porn downloads. black free hot sexy sexy video porn video gangbang fisting cameltoe. milf porn cum clips sexy tight skirts puckerd front. lesbian sex stories first time freeanimal porn videos.
Comments (0) :: Post A Comment! :: Permanent Link

About Me

youtube bestiality video fucking srilankan hora miniha fucking videoes in youtube indian desifucking simran hot south indian actress fucking sex caught in tape north indian fucking home

«  January 2015  »
MonTueWedThuFriSatSun
 1234
567891011
12131415161718
19202122232425
262728293031 

Recent Posts

amateur lesbian sex
sex pedo
hardcore lesbo
little underage
silly sex
comic pirates
girlfriend revenge
No. 56 [ 15pics ] porn pics past k9
Homemade blonde pretty wife carly beck playboy photos
Double The Fun - Marie Luv sex movies of resh,a down load
"Hot Mature Housewife VERONIKA Exposed 128 High Quality Pics / MB http://rapidshare.com/files/376910860/ver47_10.rar | 41590 KB maa ki sexy photo
P_1064x1600 anime porn daddy
Mich-lynn - Cuckold Reminiscing amateur gay sex
Amazing Five commission seeks to block child porn websites
Charmane Star * A tight Asian pussy nude jennifer aniston sex scene
Sasha Grey - My Dirty Anal sexo videos peruanos pillados
Gr@ndp@s Fuck Teens - Angelica Heart - Soldier Heart porn video sexual motherson toilet
Cutie Gets Cold And Gets Fucked iphone free coed porn
Absolutely Hot Dorte Andersen massage annmarie sex
Carol G vintage pre teen boy porn

Links

Home
View my profile
Archives
Friends
Email Me
My Blog's RSS

Friends

Page 1 of 1
Last Page | Next Page

Free Adult Blog Hosting Service
Big Sex List | Free Porn Tube | Free Porn Clips | teens anal | Free Porn Videos